November 16,2005 11:24

Ape 分歌、播放、轉換、燒錄 ♂

■ Ape 分歌、播放、轉換、燒錄
Ape - 是 Monkey's Audio 專用無失真高音質的音樂壓縮格式ApeMonkey's Audio (external link)/中文化版本 (external link)專用無損高音質的音樂壓縮格式名稱、快速無失真的壓縮技術,容量只有 WAV 格式的一半,音質卻相同,Ape 格式 適合對音質挑剔卻又想節省空間的朋友。正確壓縮後的 Ape 會有兩各檔案,附檔名各為 *.cue、*.ape~只要*.cue 檔存在且編輯正確,就能分歌轉檔、分歌播放、燒錄後選歌播放...



▼ 將 Ape 音樂直接燒錄成音樂 CD

選用 Exact Audio Copy (EAC) (external link)Nero (external link)Burrrn (external link) 直接燒錄

補充:部分網友認為先用 Foobar 2000 把 Ape 音樂檔轉成 Wav 格式再給 Nero 燒錄,這樣曲折的燒錄品質會比較穩定;貓則認為直接燒錄即可,只要燒錄速度調低,燒錄期間不要執行過多應用程式搶系統資源就能得到水準品質音樂光碟。

燒錄器、光碟、系統配備影響燒錄的品質大於選用什麼軟體,貓偏愛 Nero 加外掛直燒 Ape。

▼ 播放 Ape 格式音樂檔

播放軟體安裝後即可播放 Ape:
千千靜聽Foobar 2000 (external link)/中文化版本 (external link)KMPlayer ...

播放軟體安裝後還需加上外掛才可播放 Ape:
Winamp (external link)Windows Media Player (external link) ...

現在有越來越多支援 Ape 格式播放軟體,有的播放軟體安裝後就可以直接播放 Ape 格式音樂檔,有的需要加外掛才可以播放。

可支援 Ape 格式的播放軟體有的是全英文介面,少部分有正體中文介面,有的播放軟體要選取*.cue 才能正確播出聲音,有的點擊*.ape就能播放,也有 *.cue、*.ape 通吃的,但想要看到 完整曲目名稱或音樂檔資訊,一定要選取*.cue 檔(配合支援*.cue 檔的播放軟體)。上面例舉幾個可播放 ape 檔軟體,可再依自己使用習慣或系統環境搜索選用。

貓偏愛使用 千千靜聽 播放 ape 音樂,它 *.cue、*.ape 通吃。

  • foobar2000 調節音量:foobar界面上按小鍵盤上的“+”、“-” 鍵`,但是 DSP Manager 設置內要先加入 Volume Control. (Q:爲何 foobar2000 軟體設計人 Petere 堅持不開發音量調節鈕? 不想讓更多平民老百姓親近使用吧=.=a... ) 或者下載 foobar 外掛 foo_dirvol.dll ,安裝後可以直接用滑鼠調節音量
  • foobar2000 其餘非官方外掛 (external link)
  • 系統已安裝且習慣 Winamp 播放器的朋友~網上多建議安裝 Monkey's Audio 後就能連帶安裝讓 Winamp 播放 Ape 的外掛,如單純想聽 Ape 音樂又不想多安裝軟體,可下載貓誌提供的 Winamp 播放 Ape 免安裝外掛(Monkey's Audio 官方 3.9.9.0 版) (external link),下載後放在 Winamp 外掛資料夾
    WinXp 系統預設路徑:C:\Program Files\Winamp\Plugins,播放時選 Ape 檔就可了。Winamp 再配合安裝 Cue 檔外掛 (external link) 播放時選 Cue 檔可自由選曲。*source: http://ajvmp3.paradise.net.nz/
  • 大部分人的電腦早已有 Windows Media Player 音樂播放器,如您只是想單純聆聽 Ape 格式音樂,除了前述那各大陸簡體中文支援外掛,另外也可以選擇 Monkey Audio DS Filter (external link) (單純的 Ape 解碼器) ,安裝完成後 Windows Media Player 就能播放 Ape 音樂。

▼ 自由選曲播放 Ape 音樂檔

1 安裝 Foobar 2000 (external link)/中文化版本 (external link)

2 在副檔名為*.cue 的檔案上滑鼠右鍵點擊,選【Play in foobar 2000】

也可以選擇安裝 千千靜聽 來自由選曲播放,前提一樣要*.cue 檔內資訊編輯正確, 千千靜聽 還能在播放同時批次修改編輯*.cue 檔內資訊(包括簡轉繁功能),千千靜聽 有繁體中文操作介面,操作簡單最適合電腦新手使用。已有相當經驗的電腦使用者也 一併參考上方 所介紹的播放軟體來自由選曲播放。

凡處理 Ape 音樂格式出錯請一併參考此區說明

出錯狀況1: 播放、燒錄 Ape 操作中出現錯誤對話盒,是因為 *.cue 檔裡面的訊息編輯出錯,這時 用筆記本打開 出錯的 *.cue 檔修改
一般來說是 cue 檔案的第三行裡的"檔案路徑""檔案名"或檔案的"副檔名"出了問題,可將 cue 檔用筆記本開啟,然後把"檔案路徑"刪掉,只保留檔案名,或將附檔名 ape 改為 wav 就可以了。參考下方灰底黑字標準的 *.cue 檔架構第三行結構。

cue 的檔名要與 ape 檔名一致。 修改 cue 檔並且儲存後,可用第 2 步驟來選曲播放。

出錯狀況2: 如果打開*.cue 檔後發現第四行文字之後只有一個 Track 01,後面沒有 Track 02, Track 03, Track 04...類似情形,這代表這個音樂在最初壓縮時,被刻意壓成一個大檔,這樣子的 Ape 檔無法分曲播放。

解決辦法是自己製作*.cue 檔,把音樂從頭聽到尾,找出每個曲子的起始時間,配合專輯每首曲目(也是自己找),就可以自己手動制作*.cue 檔,一個標準的 *.cue 檔架構如下 (Ape 其他操作出現錯誤時都先來對照一下每行格式是否正確,尤其第 1~3 行最常發生贅/缺字或缺行的問題):

PERformER ""
TITLE ""
FILE "檔案名.ape" WAVE
TRACK 01 AUDIO
TITLE ""
PERformER ""
FLAGS DCP
INDEX 01 00:00:00(第一曲開始時間)
TRACK 02 AUDIO
TITLE ""
PERformER ""
FLAGS DCP
INDEX 00 04:30:47(第一曲結束時間)
INDEX 01 04:32:47(第二曲開始時間)(↖也計算中間停頓時間差)
TITLE ""
PERformER ""
FLAGS DCP INDEX 00 07:59:02(第二曲結束時間)
INDEX 01 08:01:02(第三曲開始時間)(↖也計算中間停頓時間差)

......(以下類推)

開啟筆記本按照格式編輯完成後存成 cue 檔再播放測試是否正確,過程艱辛~^_^"

▼ 將 Ape 音樂檔轉成 Wav, MP3...

Foobar 2000 (external link)/中文化版本 (external link)千千靜聽音樂轉檔精靈 (external link)Exact Audio Copy (EAC) 都能 轉 Ape 音樂檔。

  • Foobar 2000 (external link) 將 Ape 轉 MP3 之前需先把 *.cue檔分歌轉成 wav 格式...比較麻煩,軟體還兼播放音樂功能。
  • Exact Audio Copy (EAC) 僅可把 *.cue 檔分歌轉成 wav 格式,軟體還兼燒錄功能。
  • 音樂轉檔精靈 (external link) 免安裝綠色超強音樂轉檔繁體中文軟體,可把 Ape 轉 MP3,快速簡單純粹轉檔軟體。
  • 千千靜聽 可快速將音樂檔案互轉成各式各樣音樂格式,軟體還兼播放音樂功能。貓偏愛也推薦使用 千千靜聽 來 Ape 轉 MP3,簡單易用轉檔兼播歌,非常適合不喜歡像 Foobar 2000 一樣需繁雜操作的朋友。
這裡以使用 Foobar 2000 來轉檔的順序為例:

1 安裝 Foobar 2000 (external link)/中文化版本 (external link)

2 在副檔名為*.cue 的檔案上滑鼠右鍵點擊,選【Play in foobar 2000】

3 在 foobar 2000 程式功能表依序按下【foobar 2000】 → 【Preferences】

4 左方窗格點選 【Diskwriter】→ 勾選右方【Use ReplayGain】→ 點擊右下方【Close】

5 開始轉換歌曲,點選任一首歌曲反白(也可以按著 Ctrl 鍵選取好幾首歌曲或全部歌曲),按滑鼠右鍵點選【Convert】→【Run conversion】

6 跳出【Select file writer preset】對話框,保留對話框預設選項『WAV (PCM, fixed-point)』不要更動,按下【OK】

7 選擇 WAV 儲存位置,按下【確定】,開始轉檔。 出錯: 記錄歌曲時間的 *.cue 檔正確,才可以成功轉換。

*如果想要用 Foobar 2000 (external link) 把所有歌曲合併轉出成單一首,在第 5 步驟選【Convert】→【Run conversion, single file output】。

網路上頻繁推薦 ape 分曲轉檔要使用 Foobar 2000 (external link)/中文化版本 (external link) ,貓自己則非常愛使用 千千靜聽千千靜聽 是比 Foobar 2000 (external link)/中文化版本 (external link) 還晚出版的軟體,所以知名度不夠高,(是程式名稱太"可愛"又或是對岸製作的關係,台灣因此比較少推荐? 不暸...),千千靜聽 有正體中文版,無論是播歌、轉檔或編輯都能操作簡單迅速,過程一點也不曲折。 但不可否認 Foobar 2000 佔用系統資源低,播放音質優。

回最上方

▼ 把單一 Ape 音樂檔分成多個歌曲播放檔
把單一 Ape 音樂檔的每一首歌分成一個各對應的連結播放檔(副檔名*.apl),這樣子做的好處是方便以後選歌聽,也可以選擇想要的對應連結播放檔拿去給 Foobar 2000 轉檔。

  1. 安裝 Monkey's Audio (external link)/中文化版本 (external link)
  2. 到 Monkey's Audio 安裝的資料夾 預設: C:\Program Files\ Monley's Audio\Tools 尋找並執行【MakeApl.exe】→ 出現【Monley's Audio Image & CUE System】視窗,按下【Build Link Files】按鈕
  3. 跳出【開啟】對話框,找到目標 *.cue 檔,點選使其反白,按下【開啟】
  4. 出現【Success】對話框,按下【確定】
  5. 看到 *.cue 檔所在位置已分出每首歌的連結檔案(副檔名為*.apl),點選想要的播放的 apl 歌曲檔案使其反白後,滑鼠右鍵點選【開啟】
  6. 出現【Windows 無法開啟這個檔案】→ 勾選【從清單選取程式】→【確定】→ 【開啟檔案】對話框 → 點選【foobar2000】→ 【確定】→ 開始播放單首歌曲。

要記得:下載回來的 Ape 資料會有兩各檔案,附檔名各為 *.cue、*.ape ~ 只要*.cue 檔存在且編輯正確,就能分歌轉檔、分歌播放。

電腦新手請先忽略閱讀此項,初接觸 Ape 的朋友想要把 Ape 分歌轉檔的,應該都是想要把 Ape 轉成 MP 3,此需求請參考 將 Ape 音樂檔轉成 Wav, MP3...

 

▼ 把 音樂 CD 壓縮成 Ape 格式

方法一. 用 Exact Audio Copy (EAC) 或其他抓音軌軟體將音樂 CD 轉為 Wav 檔案,然後再使用 Monkey's Audio (external link)/中文化版本 (external link) 壓縮成 APE。

方法二. 使用 音樂轉檔精靈 (external link) 免安裝綠色超強音樂轉檔繁體中文軟體,可直接把 CD 抓軌成 Ape,快速簡單。

回最上方

編輯大陸來源 Ape 的 CUE 檔

使用 千千靜聽 直接編輯簡轉繁。或使用貓誌推薦的輕巧 馴碼快手 用筆記本打開 CUE 檔快速簡轉繁。

(以上所述未涵蓋所有*.ape可討論的範圍,且皆為個人使用心得並非真理。)

回最上方


  • ailuro 發表於樂多回應(7)引用(3)軟軟硬硬♂編輯本文
    切換閱讀版型 │昨日人次:0 │累計人次:19912
     

    引用URL

    http://cgi.blog.roodo.com/trackback/938095
    引用列表:
    ■ Ape 轉燒音樂 CD 方案三 (Burrrn 直燒)
    ♂ Ape 轉燒音樂 CD 方案三 (Burrrn 直燒)【貓兒♥心誌】 at June 26,2006 02:22
    ■ Ape 轉燒音樂 CD 方案二 ( Exact Audio Copy 直燒)
    ♂ Ape 轉燒音樂 CD 方案二 (EAC 直燒)【貓兒♥心誌】 at June 26,2006 02:24
    ■ Ape 轉燒音樂 CD 方案一 (Nero 直燒)
    ♂ Ape 轉燒音樂 CD 方案一 (Nero 直燒)【貓兒♥心誌】 at June 26,2006 02:25

    回應文章
    cue檔錯誤
    錯誤訊息:Cue sheet line 1 - WAVE格式錯誤

    CDImage.ape (音樂檔)
    CDImage.cue
    Cue第一行內碼的格式明明沒有錯誤(將ape改做wav都不能),但是載入時,則出現第一行錯誤訊息。請問是什麼的問題?ape檔是能夠播放的,但cue無法載入,歌的分段就完全沒有了。

    cue內碼:

    FILE "CDImage.ape" WAVE
    TRACK 01 AUDIO
    INDEX 01 00:00:00
    TRACK 02 AUDIO
    INDEX 00 02:44:35
    INDEX 01 02:46:12
    TRACK 03 AUDIO
    INDEX 00 05:46:17
    INDEX 01 05:47:50
    (簡略內容以下恕刪)
    曾發生過類似問題,乍看您貼出的訊息應該就是貓所能理解的問題出在:

    正常正確的 Cue 檔,第1到第3行的樣子如下
    PERFORMER "藝人名稱"
    TITLE "專輯名稱"
    FILE "CDImage.ape" WAVE
    ....(以下略)....
    ......................
    ......................

    假如還有問題,請檢查每首單曲的編排,參照樓上灰底黑字區域『標準的 *.cue 檔架構』,在每首單曲之間補上缺少的文字,記得先備份再修改,因為已可正常播歌 TRACK, FLAGS DCP, INDEX 包括時間秒數就不要去動到,注意每行增減文字不當會造成錯誤。
    貓兒@2006.07.24
    | 檢舉 | Posted by 健 at July 24,2006 03:37
    恩....你好
    我是想用FOOBAR開啟APE的人
    不知道是CUE不對還是怎樣
    怎麼改都還不能播放

    CUE編碼:(已經依照版主的檔案架構改過了)

    PERformER "FictionJunction YUUKA"
    TITLE "機動戦士ガンダムSEED DESTINY 挿入歌 - 焔の扉/FictionJunction YUUKA"
    FILE "CDImage.wav" WAVE
    TRACK 01 AUDIO
    TITLE "焔の扉"
    PERFORMER "FictionJunction YUUKA"
    ISRC JPVI00527170
    INDEX 01 00:00:00
    TRACK 02 AUDIO
    TITLE "焔の扉~hearty edition"
    PERFORMER "FictionJunction YUUKA"
    ISRC JPVI00527180
    INDEX 00 04:49:36
    INDEX 01 04:52:48
    TRACK 03 AUDIO
    TITLE "焔の扉~Instrumental edition"
    PERFORMER "FictionJunction YUUKA"
    ISRC JPVI00527190
    INDEX 00 09:00:19
    INDEX 01 09:03:30
    TRACK 04 AUDIO
    TITLE "焔の扉(オリジナル・カラオケ)"
    PERFORMER "FictionJunction YUUKA"
    ISRC JPVI00527200
    INDEX 00 13:52:66
    INDEX 01 13:56:40
    是還有地方沒改好嗎?我不管怎麼丟檔案上去就是會出現錯誤訊息:

    Unable to open item for playback (Unsupported file format):
    "C:\\\\Users\\\\acer\\\\Music\\\\南里侑香 Fictionjunction Yuuka\\\\Mobile Suit Gundam Seed Destiny Im - Fictionjunction Yuuka __扉\\\\機動戦士ガンダムSEED DESTINY 挿入歌 - 焔の扉/FictionJunction YUUKA\\\\CDImage.ape"

    這到底是怎麼回事呢?能否告訴我問題在哪?(PS我是把CUE跟APE一起拖進去播放)
    筆記本開啟 cue 檔
    把 第三行
    FILE "CDImage.wav" WAVE
    改成
    FILE "CDImage.ape" WAVE

    儲存。再試播放看看。

    記得 *.ape 和 *.cue 要取同檔名
    例如 CDImage.ape 和 CDImage.cue
    貓兒@2007.10.22
    | 檢舉 | Posted by 瘋人院的病毒 at October 8,2007 23:14

    大感謝…版主的文章解決了我的問題^^
    原來無法分曲播放的原因是出在cue檔上啊~
    | 檢舉 | Posted by Gisia at February 9,2008 21:10

    HI.您好..
    看到你的文章.我去下載千千靜聽來聽ape檔..
    但我怎麼找不到裏面的簡轉繁啊..
    加入.cue檔要聽歌.都亂碼..~"~
    | 檢舉 | Posted by 阿智 at May 23,2008 00:12
    對於修改CUE檔的建議實在太高明了,如果不是你的指導,我真的沒辦法成功轉檔,感謝你。
    | 檢舉 | Posted by 阿良 at May 24,2010 00:44
    3q
    | 檢舉 | Posted by gg at August 17,2010 10:26

    PERFORMER "nobuko"
    TITLE "?"
    FILE "CDImage.wav" WAVE
    TRACK 01 AUDIO
    TITLE "?"
    PERFORMER "nobuko"
    INDEX 01 00:00:00
    TRACK 02 AUDIO
    TITLE "?"
    PERFORMER "nobuko"
    INDEX 00 04:06:59
    INDEX 01 04:07:05
    TRACK 03 AUDIO
    TITLE "? (?)"
    PERFORMER "nobuko"
    INDEX 00 08:56:08
    INDEX 01 08:58:53
    TRACK 04 AUDIO
    TITLE "? (?)"
    PERFORMER "nobuko"
    INDEX 00 13:05:54
    INDEX 01 13:05:74
    大大我的問題是我的音樂是日文放進TXT他是顯示這樣這要怎辦??
    | 檢舉 | Posted by 柚子 at April 3,2011 20:27